#TITLE:Hi Ya Ya;
#SUBTITLE:;
#ARTIST:TVXQ;
#TITLETRANSLIT:Hi Ya Ya;
#SUBTITLETRANSLIT:;
#ARTISTTRANSLIT:Dong Bang Shin Ki;
#CREDIT:;
#BANNER:Hi Ya Ya-bn.png;
#BACKGROUND:Hi Ya Ya-bg.png;
#LYRICSPATH:;
#CDTITLE:pm4cd.png;
#MUSIC:Hi Ya Ya.mp3;
#OFFSET:0.320;
#SAMPLESTART:55.800;
#SAMPLELENGTH:19.980;
#SELECTABLE:YES;
#BPMS:0.000=126.010,47.500=252.010,49.500=126.010,79.500=63.010,80.500=126.010,179.500=252.011,181.500=126.010,211.500=63.010,212.500=126.010,304.500=63.010,324.500=126.010,412.250=63.010,416.500=126.010;
#STOPS:;
#BGCHANGES:0.000=Hi Ya Ya-DBSK(English Subbed) - tm b-i Baamboo Video.avi=1.000=1=1=0,
417.000=Hi Ya Ya-bg.png=1.000=0=0=1,
99999=-nosongbg-=1.000=0=0=0 // don't automatically add -songbackground-
;
// cache tags:
#FIRSTBEAT:1.000;
#LASTBEAT:417.000;
#SONGFILENAME:Songs/Music V.I.P ^_^/Hi Ya Ya/Hi Ya Ya.sm;
#HASMUSIC:1;
#HASBANNER:1;
#MUSICLENGTH:211.438;
// end cache tags

//---------------dance-single - ----------------
#NOTES:
     dance-single:
     :
     Hard:
     13:
     0.963,1.000,1.000,0.369,0.497,987.000,351.000,78.000,0.000,161.000:
0000
0000
1111
0100
0011
1000
0101
1000
,
0011
0100
1010
0001
1100
0001
1010
0100
,
0011
0100
1001
0010
1100
0010
1001
0010
,
0101
1000
0110
0001
1010
0001
0110
1000
,
0011
0000
1000
1000
1111
0000
0010
0100
1010
0000
1000
0000
0110
0000
0001
0010
,
1100
0000
0010
0010
0101
0000
0001
0010
1001
0010
0100
0010
1100
0010
0001
0010
,
1010
0000
0100
0000
0011
0000
0001
0001
1010
0100
1000
0001
0101
0000
0001
0000
,
0110
0000
0100
0000
0011
0000
0100
0000
1010
0100
0001
0010
1001
0000
0010
0000
,
1100
0000
0001
0000
1020
0000
0100
0000
1001
0000
1000
0100
0101
0000
0001
0000
,
1100
0001
0100
0001
1100
1000
0001
1000
0101
0000
0100
0001
1100
0000
1000
0000
,
1001
0000
0001
0030
2100
0000
0001
0100
0011
0000
0100
0000
0110
0000
0001
0000
,
0101
0000
0010
3000
1001
0000
0010
0000
1100
0000
0010
0000
0110
0000
0010
0000
,
0202
0000
0000
0000
1313
0001
0101
0010
,
1100
0100
1010
0100
0011
0001
1100
0001
,
1010
0100
0011
1000
0101
1000
0110
0001
,
0011
0001
1010
0001
0110
1000
0011
0100
,
1002
0010
1200
0010
1013
0001
0311
1000
,
0011
1000
0101
0010
0011
1000
1001
0010
,
0101
0100
0011
1000
0110
0010
1100
0001
,
1010
0010
0101
0010
1100
1000
1001
0010
,
2200
0010
3311
1000
1001
0010
0101
0100
,
0011
1000
0110
0010
1010
0100
0011
0001
,
0101
0010
1010
0100
1100
0001
1010
0010
,
1001
0010
0210
0001
1001
0010
0311
0000
,
0110
0000
2100
0010
0011
0100
0101
0100
,
0110
0001
3102
0010
1010
1000
0110
0100
,
1100
0010
1203
0010
1001
0010
1010
1000
,
0011
0000
1000
0000
2301
0010
0100
0010
0100
0010
0001
0010
0001
0100
0001
0100
,
0001
0000
0000
0010
0000
0000
0100
0000
0000
0010
0000
0000
3002
0000
0010
0000
0100
0000
1000
0000
0010
0000
0100
0000
1000
0000
0010
0000
0100
0000
1000
0000
0010
0000
0100
0000
1000
0000
0010
0000
0100
0000
1000
0000
0010
0000
0100
0000
,
1000
0010
0100
1000
0010
0100
1113
0000
0000
0010
0000
0000
0101
0000
0000
1000
0000
0000
0011
0000
0000
0100
0000
0000
,
0110
0001
1010
0100
1001
1000
0011
0100
,
0110
0001
1010
0100
1001
0001
1100
0010
,
0110
1000
0102
0100
1020
1000
1203
0001
,
1031
0001
0311
1000
0101
0010
1001
0001
,
1010
0100
0011
1000
0101
0010
0110
1000
,
0011
0100
1010
0001
1001
0100
0011
1000
,
0110
0001
1020
0100
1001
0001
2130
0001
,
0110
0000
0010
0010
3102
0010
0100
0010
0100
1000
0100
1000
0100
0010
1000
0010
,
1000
0100
0010
0100
2013
0001
0010
0001
0010
0001
0100
0001
0100
0010
0001
0100
,
0010
0001
0010
0100
3021
0100
1000
0100
1000
0001
1000
0001
1000
0001
0100
0001
,
0100
1000
0100
0001
1230
0010
1000
0010
1000
0001
0010
0001
0010
1000
0001
1000
,
0001
0010
1000
1000
0302
0000
0000
0000
0010
0000
0100
0000
0000
0000
0000
0000
,
0000
0100
1000
0000
0010
0000
0100
0000
,
1000
0000
1113
0001
0110
0100
0011
1000
,
0101
0010
1001
0001
1100
0100
0011
1000
,
0202
0000
0000
0000
1313
1000
0011
0100
,
1001
0010
1100
0001
0110
1000
0101
0001
,
1001
0001
0110
1000
0011
1000
1100
0001
,
0101
0001
1001
0100
0011
1000
0110
0100
,
2001
0010
0102
0010
3110
1000
1013
0100
,
0011
0100
1001
0010
0011
1000
0110
0001
,
0101
1000
0011
0100
1100
0001
1010
0100
,
1001
0010
1100
0001
0110
1000
0011
0100
,
0220
1000
1331
0010
1100
0001
1010
0001
,
0110
1000
0101
0010
1010
0100
0011
1000
,
1001
0010
0110
0001
1100
0100
0011
0100
,
1001
0010
2010
0001
0101
0010
3011
0000
,
1100
0000
1002
0010
1100
1000
1010
0100
,
1100
0010
0123
1000
1001
0100
0101
0100
,
1100
0001
0231
1000
0011
0010
1010
0001
,
1001
0000
0010
0000
0320
0001
1000
0001
0100
1000
0100
0001
1000
0100
0001
0100
,
0001
0000
0000
1000
0000
0000
0100
0000
0000
0001
0000
0000
2130
0000
0010
0000
0001
0000
0110
0000
0001
0000
0010
0000
0101
0000
0010
0000
0001
0000
0110
0000
0001
0000
0010
0000
0101
0000
0010
0000
0001
0000
0110
0000
0001
0000
0010
0000
,
0101
0010
0001
0110
0001
0010
3111
0000
0000
0010
0000
0000
0101
0000
0000
1000
0000
0000
0011
0000
0000
0100
0000
0000
,
0110
0001
1010
0100
1001
1000
0011
0100
,
0110
0001
1010
0100
1001
0001
1100
0010
,
0110
1000
0102
0100
1020
1000
1203
0001
,
1031
0001
0311
1000
0101
0010
1001
0001
,
1010
0100
0011
1000
0101
0010
0110
1000
,
0011
0100
1010
0001
1001
0100
0011
1000
,
0110
0001
1020
0100
1001
0001
2130
0001
,
0110
0000
0010
0010
3102
0010
0100
0010
1100
0010
0100
1000
0110
1000
0100
0010
,
1010
0100
0010
0100
2013
0001
0010
0001
0110
0001
0100
0001
0011
0100
0010
0001
,
0110
0001
0010
0100
3021
0100
1000
0100
1001
0001
1000
0001
1100
0001
0100
0001
,
0101
1000
0100
0001
1230
0010
1000
0001
1010
0001
1000
0001
0011
1000
0001
1000
,
0011
0010
1000
1000
1302
0000
0000
0000
0010
0000
0100
0000
0000
0000
0000
0000
,
0000
0100
1000
0000
0010
0000
0100
0000
,
1000
0000
0000
0000
0203
0000
0000
0000
0010
0001
1000
0001
0320
0000
0000
1000
,
0200
0000
2000
0001
3332
0000
0000
0000
1000
0100
0010
0100
2003
0000
0000
0010
,
0000
0000
0001
0010
3200
0000
0001
0000
0320
0000
1000
0000
0032
0000
0100
0000
,
0023
0000
0001
0000
2032
0000
0100
0000
0010
0000
0100
0000
0020
0000
0000
0100
,
0100
0000
0000
0000
0100
0000
0000
0000
3133
1000
0100
1000
0100
1000
0100
1000
0100
1000
0100
1000
0100
0010
0100
0010
0001
0010
0001
0010
0001
0010
0001
0010
,
0001
0010
0001
0010
0001
0010
0100
0010
1101
0000
0000
0000
0010
0000
0000
0000
0101
0000
0000
0000
1000
0000
0000
0000
0011
0000
0000
0000
0100
0000
0000
0000
,
0110
0001
1010
0100
1001
1000
0011
0100
,
0110
0001
1010
0100
1001
0001
1100
0010
,
0110
1000
0102
0100
1020
1000
1203
0001
,
1031
0001
0311
1000
0101
0010
1001
0001
,
1010
0100
0011
1000
0101
0010
0110
1000
,
0011
0100
1010
0001
1001
0100
0011
1000
,
0110
0001
1020
0100
1001
0001
2130
0001
,
0110
0010
3121
0001
1100
1000
0101
0100
,
1001
0100
1100
0100
0101
1000
1100
0100
,
1001
1000
0131
0100
1001
0001
1100
0010
,
0110
1000
0102
0100
1020
1000
1203
0001
,
1031
0001
0311
1000
0101
0010
1001
0001
,
1010
0100
0011
1000
0101
0010
0110
1000
,
0011
0100
1010
0001
1001
0100
0011
1000
,
0110
0001
1020
0100
1001
0001
2130
0001
,
0110
0000
0010
0010
3102
0010
0100
0010
1100
0010
0100
1000
0110
1000
0100
0010
,
1010
0100
0010
0100
2013
0001
0010
0001
0110
0001
0100
0001
0011
0100
0010
0001
,
0110
0001
0010
0100
3021
0100
1000
0100
1001
0001
1000
0001
1100
0001
0100
0001
,
0101
1000
0100
0001
1230
0010
1000
0001
1010
0001
1000
0001
0011
1000
0001
1000
,
0011
0010
1000
1000
1302
0000
0000
0000
0000
0010
0000
0100
0000
0000
0000
0000
,
0000
0000
0000
0100
0000
1000
0000
0000
0000
0010
0000
0000
0000
0100
0000
0000
,
0000
1000
0003
2200
0000
0000
0000
3320
0000
0000
0000
0000
0000
0000
0000
0000
,
0000
0030
0000
0000
;

//---------------dance-single - ----------------
#NOTES:
     dance-single:
     :
     Medium:
     1:
     0.000,0.000,0.000,0.000,0.000,0.000,0.000,0.000,0.000,0.000:
0000
0000
0000
0000
;
